Absolute Deception 2013 480p BRRip XviD AC3-PIRATEX

seeders: 3
leechers: 13
Added on Aug 14, 2013 in Movies
Downloaded 3 times.

Summary:
No summary yet
Available in versions: 1080p720pBDRipHDRiPDVDDVDRip
Absolute Deception 2013 480p BRRip XviD AC3-PIRATEX (Size: 1.54 GB)
  Absolute.Deception.2013.480p.BRRip.XviD.AC3-PIRATEX.avi 1.54 GB

Description


Info:

Format : AVI

Format/Info : Audio Video Interleave

Format profile : OpenDML

File size : 1.54 GiB

Duration : 1h 32mn

Overall bit rate : 2 396 Kbps

Movie name : www.RARBG.com

Writing application : Lavf55.11.101
Video

ID : 0

Format : MPEG-4 Visual

Format profile : Simple@L3

Format settings, BVOP : No

Format settings, QPel : No

Format settings, GMC : No warppoints

Format settings, Matrix : Default (H.263)

Codec ID : XVID

Codec ID/Hint : XviD

Duration : 1h 32mn

Bit rate : 2 000 Kbps

Width : 720 pixels

Height : 404 pixels

Display aspect ratio : 16:9

Original display aspect ratio : 16:9

Frame rate : 23.976 fps

Color space : YUV

Chroma subsampling : 4:2:0

Bit depth : 8 bits

Scan type : Progressive

Compression mode : Lossy

Bits/(Pixel*Frame) : 0.287

Stream size : 1.29 GiB (83%)

Writing library : XviD 64
Audio

ID : 1

Format : AC-3

Format/Info : Audio Coding 3

Mode extension : CM (complete main)

Format settings, Endianness : Big

Codec ID : 2000

Duration : 1h 32mn

Bit rate mode : Constant

Bit rate : 384 Kbps

Channel(s) : 2 channels

Channel positions : Front: L R

Sampling rate : 48.0 KHz

Bit depth : 16 bits

Compression mode : Lossy

Stream size : 253 MiB (16%)

Alignment : Aligned on interleaves

Interleave, duration : 32 ms (0.77 video frame)

Interleave, preload duration : 32 ms
Screens:

Sharing Widget


Download torrent
1.54 GB
seeders:3
leechers:13
Absolute Deception 2013 480p BRRip XviD AC3-PIRATEX

Trackers

tracker name Status checked seeders leechers downloads
udp://tracker.istole.it/announce
outdated 14 Aug 2013 - - -
udp://9.rarbg.com:2710/announce
outdated 14 Aug 2013 - - -
udp://9.rarbg.me:2710/announce
outdated 14 Aug 2013 - - -
udp://tracker.publicbt.com:80/announce
outdated 14 Aug 2013 - - -
udp://tracker.istole.it:80/announce
outdated 14 Aug 2013 - - -
udp://tracker.publicbt.com/announce
outdated 14 Aug 2013 - - -
udp://12.rarbg.me:80/announce
blocked 14 Aug 2013 - - -
http://fr33domtracker.h33t.com:3310/announce
deleted 14 Aug 2013 - - -
udp://10.rarbg.me/announce
pending 14 Aug 2013 3 10 3
udp://10.rarbg.com/announce
pending 14 Aug 2013 1 12 0
udp://11.rarbg.me/announce
pending 14 Aug 2013 1 9 0
http://94.228.192.98/announce
pending 14 Aug 2013 2 13 0
http://tracker.trackerfix.com:80/announce
pending 14 Aug 2013 0 0 0
udp://12.rarbg.me/announce
pending 14 Aug 2013 2 12 0
udp://ipv4.tracker.harry.lu:80/announce
pending 14 Aug 2013 0 0 0
ĀµTorrent compatible trackers list

Locations

name
ExtraTorrent
Torrent hash: 8B25DC9B0D540885EF733E7AA07D489C79BF1488

All Comments

audio
0/10
video
0/10
please, leave only comments related to that torrent
or sign-in
Report a bug
', 'pageview');