Beck: The Movie (Beck: Live Action Eng Subbed) 480p [Cursator]

seeders: 1
leechers: 1
updated:
Added by cursator489 in Movies
Downloaded 22 times.

Beck: The Movie (Beck: Live Action Eng Subbed) 480p [Cursator] (Size: 570.39 MB)
  BECK_-Mongolian-Chop-Squad-Full-Live-Action-Movie-(Eng-Sub).webm 568.9 MB
  BECK_-Mongolian-Chop-Squad-Full-Live-Action-Movie-(Eng-Sub).srt 80.96 KB
  Cover
  Screenshots

Description

Beck The Movie! (Beck Live Action) at 480p Video Quality :)

Please seed after you download.

--------------------------------------------------------------------------------

Cover
--------------------------------------------------------------------------------

image
--------------------------------------------------------------------------------

image
---------------------------------------------------------------------------------

Torrent Statistics

image
----------------------------------------------------------------------------------

General
--------

Format : WebM
Format version : Version 2
File size : 569 MiB
Duration : 2h 26mn
Overall bit rate mode : Variable
Overall bit rate : 543 Kbps
Writing application : google
Writing library : google


image
---------------------------------------

ID : 1
Format : VP8
Codec ID : V_VP8
Duration : 2h 26mn
Bit rate : 384 Kbps
Width : 640 pixels
Height : 284 pixels
Display aspect ratio : 2.25:1
Frame rate mode : Constant
Frame rate : 23.976 fps
Compression mode : Lossy
Bits/(Pixel*Frame) : 0.088
Stream size : 403 MiB (71%)
Language : English
Default : Yes
Forced : No

image
----------------------------------

ID : 2
Format : Vorbis
Format settings, Floor : 1
Codec ID : A_VORBIS
Duration : 2h 26mn
Bit rate mode : Variable
Bit rate : 128 Kbps
Channel(s) : 2 channels
Sampling rate : 44.1 KHz
Compression mode : Lossy
Stream size : 134 MiB (24%)
Default : Yes
Forced : No


----------------------------------------------------------------------------------

image
----------------------------------------------------------------------------------

image



image



image



image



image



----------------------------------------------------------------------------------

Story
----------------------------------------------------------------------------------

Tanaka Yukio, better known by his nickname Koyuki is a 16 year old who feels disconnected from life in general. Through the act of saving a mismatched dog, he meets guitarist Minami Ryuusuke, and becomes involved in Ryuusuke's new band BECK. Koyuki's life starts to change as the band struggles towards fame.
----------------------------------------------------------------------------------

Thank you for downloading.

Enjoy Watching :)
----------------------------------------------------------------------------------

Facebook
----------------------------------------------------------------------------------

image
Find Me on Facebook :)

or

Cursator@ymail.com






Sharing Widget


Download torrent
570.39 MB
seeders:1
leechers:1
Beck: The Movie (Beck: Live Action Eng Subbed) 480p [Cursator]



To share this torrent use the code below and insert it into comments, status messages, forum posts or your signature.

Torrent: Beck: The Movie (Beck: Live ... Eng Subbed) 480p [Cursator]

Trackers

tracker name
udp://open.demonii.com:1337/announce
udp://tracker4.piratux.com:6969/announce
udp://glotorrents.pw:6969/announce
udp://9.rarbg.me:2710/announce
udp://coppersurfer.tk:6969/announce
udp://tracker.istole.it:80/announce
udp://tracker.openbittorrent.com:80/announce
udp://tracker.publicbt.com:80/announce
udp://explodie.org:6969/announce
udp://tracker.opentrackr.org:1337/announce
ĀµTorrent compatible trackers list

Locations

name
KickassTorrents
ExtraTorrent
Torrent hash: C0A63CB5E61555D1BC41B0C4E3914DDE589B4B8E

All Comments

audio
0/10
video
0/10
please, leave only comments related to that torrent
Sign In

why is there a part that is cut and you have to past forward it?
sir how to put the eng subs ?? by the way thanks a lot for uploading!!!

User Opinions

Ragil48111073, wew123968, dxamit902, jerg13410, TheRedGod240, SirHarke93, RJEB14, Jonathan0011, sakuri11, waplak2 ... And 2 more
Report a bug
'><\/a>") //-->