Beyond Remedy 2009 DVDRip XviD-VoMiT

seeders: 3
leechers: 3
Added on Jan 11, 2010 in Movies
Torrent verified. Downloaded 0 times.

Summary:
An international group of medical students takes part in a seminar on fear - with deadly results.
Written by Man2015noW60.07K
report summary
Available in versions: DVDRip
Beyond Remedy 2009 DVDRip XviD-VoMiT (Size: 701.9 MB)
  vmt-beyr-xvid.avi 701.9 MB

Description



Format : AVI
Format/Info : Audio Video Interleave
File size : 702 MiB
Duration : 1h 30mn
Overall bit rate : 1 079 Kbps
Writing application : VirtualDubMod 1.5.10.2 (build 2540/release)
Writing library : VirtualDubMod build 2540/release

Video
ID : 0
Format : MPEG-4 Visual
Format profile : AdvancedSimple@L5
Format settings, BVOP : Yes
Format settings, QPel : No
Format settings, GMC : No warppoints
Format settings, Matrix : Default (H.263)
Codec ID : XVID
Codec ID/Hint : XviD
Duration : 1h 30mn
Bit rate : 939 Kbps
Width : 640 pixels
Height : 352 pixels
Display aspect ratio : 16:9
Frame rate : 25.000 fps
Resolution : 24 bits
Colorimetry : 4:2:0
Scan type : Progressive
Bits/(Pixel*Frame) : 0.167
Stream size : 611 MiB (87%)
Writing library : XviD 1.2.1 (UTC 2008-12-04)

Audio
ID : 1
Format : MPEG Audio
Format version : Version 1
Format profile : Layer 3
Format_Settings_Mode : Joint stereo / MS Stereo
Codec ID : 55
Codec ID/Hint : MP3
Duration : 1h 30mn
Bit rate mode : Variable
Bit rate : 127 Kbps
Nominal bit rate : 128 Kbps
Channel(s) : 2 channels
Sampling rate : 48.0 KHz
Resolution : 16 bits
Stream size : 82.7 MiB (12%)
Alignment : Aligned on interleaves
Interleave, duration : 24 ms (0.60 video frame)
Interleave, preload duration : 153 ms
Writing library : LAME3.90.
Encoding settings : -m j -V 4 -q 2 -lowpass 17.6 --abr 128



An international group of medical students takes part in a seminar on fear - with deadly results

Jaqueline Burgschat ... Rin
Annalena Duken ... Tina
David Gant ... Gingrich
Tobias Kasimirowicz ... Eddy

Daniel Krauss ... Philip

Edward Piccin ... Clark

Rick Yune ... Dr. Lee

Marie Zielcke ... Julia







TO LEAVE ME A REVIEW~~~>CLICK HERE

Related Torrents

torrent name size files age seed leech

Sharing Widget


Download torrent
701.9 MB
seeders:3
leechers:3
Beyond Remedy 2009 DVDRip XviD-VoMiT

Trackers

tracker name Status checked seeders leechers downloads
http://tracker.openbittorrent.com/announce
outdated 17 Jan 2012 - - -
udp://tracker.publicbt.com:80/announce
outdated 17 Jan 2012 - - -
udp://tracker.openbittorrent.com:80/announce
outdated 17 Jan 2012 - - -
http://tracker.publicbt.com/announce
deleted 17 Jan 2012 - - -
ĀµTorrent compatible trackers list

Locations

name
ExtraTorrent
Torrent hash: c08e502a68cb74580baf60a7a5a35a77c673498c

All Comments

audio
0/10
video
0/10
please, leave only comments related to that torrent
or sign-in
Report a bug
', 'pageview');