Dantes Inferno Animated 2010 BDRip Xvid - Espise

seeders: 1
leechers: 0
Added on Feb 4, 2010 in Movies
Torrent verified. Downloaded 10 times.

Summary:
Dante is guided by his hero Virgil through each circle of Hell and its subdivisions until they reach the center of the Earth and emerged to the other hemisphere into Purgatory.
Written by Pahly137.18K
report summary
Available in versions: Blu-RayDVDRip
Dantes Inferno Animated 2010 BDRip Xvid - Espise (Size: 699.19 MB)
  Dante's Inferno Animated 2010 BDRip Xvid - Espise.avi 699.19 MB

Description

Dante\'s Inferno Animated 2010 BDRip Xvid -Espise




Rating:
7.0/10




Code:

http://www.imdb.com/title/tt1472122/

Genre:
Action

Release Date:
5 April 2010 (USA)

Director: Boris Acosta

Cast: Jeff Konevey, Sylvia colloquium, Vincent Spano, Victoria Mateuchchi, Ricardo Praeuzzi, Leslie Garza Rivera




Dante\'s Inferno Animated is a short animation film that tells Dante Alighieri\'s journey through the first part of the afterlife, Inferno. It is a compelling four-quadrant film organized circle by circle and narrated in primitive Italian in Dante\'s own words. Dante is guided by his hero Virgil through each circle of Hell and their subdivisions until they reach the center of the Earth and emerged to the other hemisphere into Purgatory. It features over 50 original color illustrations from the upcoming Dante\'s Inferno comic book and magazine series, put together in a series of animation clips that will delight a young audience.






Complete name : E:\\Dante\'s Inferno Animated 2010 BDRip Xvid - Espise.avi
Format : AVI
Format/Info : Audio Video Interleave
File size : 699 MiB
Duration : 1h 28mn
Overall bit rate : 1 109 Kbps
Writing application : VirtualDubMod 1.5.10.2 (build 2540/release)
Writing library : VirtualDubMod build 2540/release




Format : MPEG-4 Visual
Format profile : Simple@L3
Format settings, BVOP : No
Format settings, QPel : No
Format settings, GMC : No warppoints
Format settings, Matrix : Default (MPEG)
Codec ID : XVID
Codec ID/Hint : XviD
Duration : 1h 28mn
Bit rate : 968 Kbps
Width : 608 pixels
Height : 336 pixels
Display aspect ratio : 16:9
Frame rate : 23.976 fps
Resolution : 24 bits
Colorimetry : 4:2:0
Scan type : Progressive
Bits/(Pixel*Frame) : 0.198
Stream size : 610 MiB (87%)
Writing library : XviD 1.0.3 (UTC 2004-12-20)



Format : MPEG Audio
Format version : Version 1
Format profile : Layer 3
Format settings, Mode : Joint stereo / MS Stereo
Codec ID : 55
Codec ID/Hint : MP3
Duration : 1h 28mn
Bit rate mode : Variable
Bit rate : 128 Kbps
Channel(s) : 2 channels
Sampling rate : 48.0 KHz
Resolution : 16 bits
Stream size : 80.7 MiB (12%)
Alignment : Aligned on interleaves
Interleave, duration : 24 ms (0.58 video frame)
Interleave, preload duration : 170 ms
Writing library : LAME3.90.
Encoding settings : -m j -V 4 -q 2 -lowpass 17.6 --abr 128

















****************************************************************


PreVious UploAdeD Kicka** Quality TorreNts By KNIGHT RIDERS:-

http://extratorrent.com/torrent/2177219/Tooth+Fairy+(2010)+CAM-+KNIGHT+RIDERS+RELEASE.html

http://extratorrent.com/torrent/2177195/Legion+(2010)+CAM-+KNIGHT+RIDERS+RELEASE.html









PreVious UploAdeD TorreNt By EMUworld:-

http://extratorrent.com/profile/EMUworld/torrents/

Related Torrents

torrent name size files age seed leech

Sharing Widget


Download torrent
699.19 MB
seeders:1
leechers:0
Dantes Inferno Animated 2010 BDRip Xvid - Espise

Trackers

tracker name Status checked seeders leechers downloads
http://tracker.openbittorrent.com/announce
outdated 18 May 2010 - - -
udp://tracker.publicbt.com:80/announce
outdated 04 Feb 2010 - - -
udp://tracker.openbittorrent.com:80/announce
outdated 04 Feb 2010 - - -
http://tracker.publicbt.com/announce
deleted 18 Aug 2011 - - -
ĀµTorrent compatible trackers list

Locations

name
ExtraTorrent
Torrent hash: d018afbed56d5e1fa82f31b2d432d6b2efaf1863

All Comments

audio
9/10
video
9/10
please, leave only comments related to that torrent
or sign-in
0
hitman23215 • 02 September 2010, 04:19
torrent downloaded
Show comment
audio: 9video: 9
0
anonymous • 21 February 2010, 13:16 Show comment
oreos

User Opinions

Report a bug
', 'pageview');