Pitbull - International Love ft. Chris Brown 1080p

seeders: 4
leechers: 1
Added on Mar 4, 2012 in Movies > Music videos
Torrent verified. Downloaded 10 times.

Pitbull - International Love ft. Chris Brown 1080p (Size: 134.16 MB)
  Pitbull - International Love ft. Chris Brown 1080 - ETA.mp4 128.92 MB
  screen3.png 1.96 MB
  screen1.png 1.28 MB
  screen2.png 971.22 KB
  screen4.png 959.22 KB
  Thump screen.jpeg 114.71 KB

Description

Pitbull - International Love ft. Chris Brown 1080p




-=Video=-


ID : 1
Format : AVC
Format/Info : Advanced Video Codec
Format profile : Baseline@L5.1
Format settings, CABAC : No
Format settings, ReFrames : 1 frame
Codec ID : avc1
Codec ID/Info : Advanced Video Coding
Duration : 4mn 8s
Bit rate mode : Variable
Bit rate : 4 286 Kbps
Width : 1 920 pixels
Height : 1 080 pixels
Display aspect ratio : 16:9
Frame rate mode : Constant
Frame rate : 23.976 fps
Color space : YUV
Chroma subsampling : 4:2:0
Bit depth : 8 bits
Scan type : Progressive
Bits/(Pixel*Frame) : 0.086
Stream size : 127 MiB (98%)



-=Audio=-


ID : 2
Format : AAC
Format/Info : Advanced Audio Codec
Format version : Version 4
Format profile : LC
Format settings, SBR : No
Codec ID : 40
Duration : 4mn 8s
Bit rate mode : Variable
Bit rate : 63.9 Kbps
Channel(s) : 2 channels
Channel positions : Front: L R
Sampling rate : 44.1 KHz
Stream size : 1.89 MiB (1%)



-=Screens=-

http://www.shotpix.com/images/86116866863767991949.png

http://www.shotpix.com/images/37543529367875259735.png

http://www.shotpix.com/images/79374815381872496161.png



-=Thump Screen=-

http://www.shotpix.com/images/34426556308702864599.jpeg

Related Torrents

torrent name size files age seed leech

Sharing Widget


Download torrent
134.16 MB
seeders:4
leechers:1
Pitbull - International Love ft. Chris Brown 1080p

Trackers

tracker name Status checked seeders leechers downloads
udp://tracker.istole.it:80/announce
active 18 Nov 2014 3 1 10
udp://tracker.openbittorrent.com:80/announce
active 18 Nov 2014 4 1 10
udp://tracker.publicbt.com:80/announce
active 18 Nov 2014 4 0 10
udp://tracker.1337x.org:80/announce
outdated 19 Sep 2013 - - -
http://10.rarbg.com/announce
private 19 Sep 2013 - - -
http://pow7.com/announce
outdated 19 Sep 2013 - - -
http://exodus.desync.com:6969/announce
blocked 19 Sep 2013 - - -
udp://fr33domtracker.h33t.com:3310/announce
deleted 19 Sep 2013 - - -
http://9.rarbg.com:2710/announce
private 29 Jan 2013 - - -
http://tracker.novalayer.org:6969/announce
pending 19 Sep 2013 0 0 0
µTorrent compatible trackers list

Locations

name
ThePirateBay
Limetorrents
Torrent hash: 6570461053fa5022371a0a97221c3c2491a9af09

All Comments

please, leave only comments related to that torrent
or sign-in
0
midnightrun78941 • 29 October 2012, 02:07
torrent downloaded
Show comment
audio: 8video: 7
Video was alright, but low audio....
0
TheGodFather!2615 • 03 July 2012, 05:40
torrent downloaded
Show comment
audio: 7video: 7
Quality Not 1080p :(
0
Draconia613612 • 10 June 2012, 17:52
torrent downloaded
Show comment
audio: 8video: 8
good video and song

User Opinions

Report a bug
', 'pageview');