Post Grad DVDSCR XViD IMAGiNE

seeders: 0
leechers: 1
Added on Nov 24, 2009 in Movies
Torrent verified. Downloaded 0 times.

Summary:
Ryden Malby graduates from college and is forced to move back into her childhood home with her eccentric family, while she attempts to find a job, the right guy, and just a hint of where her life is headed.
Written by thePiratePimp52.95K
report summary
Available in versions: 720pHDRiPDVDRipScreener
Post Grad DVDSCR XViD IMAGiNE (Size: 765.69 MB)
  Post Grad DVDSCR XViD IMAGiNE.avi 761.06 MB
  sample.avi 4.62 MB
  Post Grad DVDSCR XViD IMAGiNE.part01.sfv 6.76 KB
  Post Grad DVDSCR XViD IMAGiNE.nfo 4.51 KB

Description



Post Grad DVDSCR XViD
*************************************************


Ripper ...........: ???? IMDB Rating.......:5.8/10

Video Codec.......: XVID Release Date......:01/10/09

Audio Codec.......:aC3 Theatre Date......:14/08/09

Audio Bitrate.....:192 Runtime.......:1h 28mn

Subtitles.........:NIL Language..........:ENGLISH

Resolution...... 720 x 384 IMDb URL..........:http://www.imdb.com/title/tt1142433/





DETAILS:



Video

ID : 0

Format : MPEG-4 Visual

Format profile : AdvancedSimple@L5

Format settings, BVOP : Yes

Format settings, QPel : No

Format settings, GMC : No warppoints

Format settings, Matrix : Default (H.263)

Muxing mode : Packed bitstream

Codec ID : XVID

Codec ID/Hint : XviD

Duration : 1h 28mn

Bit rate : 1 000 Kbps

Width : 720 pixels

Height : 384 pixels

Display aspect ratio : 1.875

Frame rate : 30.000 fps

Resolution : 24 bits

Colorimetry : 4:2:0

Scan type : Progressive

Bits/(Pixel*Frame) : 0.121

Stream size : 632 MiB (83%)

Writing library : XviD 1.2.1 (UTC 2008-12-04)



Audio

ID : 1

Format : AC-3

Format/Info : Audio Coding 3

Codec ID : 2000

Duration : 1h 28mn

Bit rate mode : Constant

Bit rate : 192 Kbps

Channel(s) : 2 channels

Channel positions : L R

Sampling rate : 48.0 KHz

Stream size : 121 MiB (16%)

Alignment : Aligned on interleaves

Interleave, duration : 33 ms (1.00 video frame)

Interleave, preload duration : 512 ms











Related Torrents

torrent name size files age seed leech

Sharing Widget


Download torrent
765.69 MB
seeders:0
leechers:1
Post Grad DVDSCR XViD IMAGiNE

Trackers

tracker name Status checked seeders leechers downloads
http://tracker.openbittorrent.com/announce
outdated 02 May 2010 - - -
udp://tracker.publicbt.com:80/announce
outdated 24 Nov 2009 - - -
udp://tracker.openbittorrent.com:80/announce
outdated 24 Nov 2009 - - -
http://tracker.publicbt.com/announce
deleted 23 Jul 2011 - - -
ĀµTorrent compatible trackers list

Locations

name
ExtraTorrent
Mininova
Torrentzap
SumoTorrent
Torrent hash: 2f4eb719adace71db54a2ee658090a6371d9e326

All Comments

audio
2/10
video
6/10
please, leave only comments related to that torrent
or sign-in
0
anonymous • 31 December 2009, 14:20 Show comment
audio: 2video: 6
A/10-V/7 It's The Whole Movie. and it took half a day 2 DL.
0
anonymous • 25 December 2009, 15:01 Show comment
no comments? oh cmon! hows a/v?
Report a bug
', 'pageview');