Satte Pe Satta (1982) DVDRip Xvid

seeders: 4
leechers: 2
Added on Apr 2, 2012 by arsenal_20123888 in Movies > Bollywood
Torrent verified. Downloaded 10 times.

Available in versions: DVDRip
Satte Pe Satta (1982) DVDRip Xvid (Size: 1.45 GB)
  Satte Pe Satta [1982] DVDRip Xvid Mp3.avi 1.45 GB
  Torrent Tracked By DESIDHAMAL.COM.txt 77 bytes

Description


Satte Pe Satta (1982) DVDRip XviD MP3

image


INFO
Format : AVI
Format/Info : Audio Video Interleave
File size : 1.45 GiB
Duration : 2h 33mn
Overall bit rate : 1 346 Kbps

Video
ID : 0
Format : MPEG-4 Visual
Format profile : Advanced Simple@L5
Format settings, BVOP : 2
Format settings, QPel : No
Format settings, GMC : No warppoints
Format settings, Matrix : Default (H.263)
Codec ID : XVID
Codec ID/Hint : XviD
Duration : 2h 33mn
Bit rate : 1 083 Kbps
Width : 640 pixels
Height : 304 pixels
Display aspect ratio : 2.2:1
Frame rate : 29.970 fps
Color space : YUV
Chroma subsampling : 4:2:0
Bit depth : 8 bits
Scan type : Progressive
Compression mode : Lossy
Bits/(Pixel*Frame) : 0.186
Stream size : 1.16 GiB (80%)
Writing library : XviD 1.2.1 (UTC 2008-12-04)

Audio
ID : 1
Format : MPEG Audio
Format version : Version 1
Format profile : Layer 3
Mode : Joint stereo
Mode extension : MS Stereo
Codec ID : 55
Codec ID/Hint : MP3
Duration : 2h 33mn
Bit rate mode : Constant
Bit rate : 256 Kbps
Channel(s) : 2 channels
Sampling rate : 48.0 KHz
Compression mode : Lossy
Stream size : 282 MiB (19%)
Alignment : Aligned on interleaves
Interleave, duration : 133 ms (4.00 video frames)
Interleave, preload duration : 216 ms
Title : VTS_02_1 T80 3_2ch 384Kbps DELAY 0ms
Writing library : LAME3.98r
Encoding settings : -m j -V 4 -q 2 -lowpass 19.7



SCREEN SHOTS

image

image

image

image

image

image

image

image

image

image

image

image

image

*** ALL CREDITS TO kk4ever N Team DUS ***
** SPECIAL THANKS TO TEAM DrC **


Related Torrents

torrent name size files age seed leech

Sharing Widget


Download torrent
1.45 GB
seeders:4
leechers:2
Satte Pe Satta (1982) DVDRip Xvid

Trackers

tracker name Status checked seeders leechers downloads
udp://tracker.openbittorrent.com:80/announce
outdated 22 Feb 2014 - - -
udp://tracker.publicbt.com:80/announce
outdated 22 Feb 2014 - - -
udp://tracker.istole.it:80/announce
outdated 22 Feb 2014 - - -
udp://tracker.1337x.org:80/announce
outdated 21 Sep 2013 - - -
http://exodus.desync.com:6969/announce
blocked 21 Sep 2013 - - -
udp://fr33domtracker.h33t.com:3310/announce
deleted 21 Sep 2013 - - -
ĀµTorrent compatible trackers list

Locations

name author
KickassTorrents arsenal_2012
Torrent hash: 9EB13CDE5655CD2BA61B87CF8EEB49D0A9514A38

All Comments

audio
0/10
video
0/10
please, leave only comments related to that torrent
or sign-in
0
anonymous • 02 August 2013, 18:42 Show comment
thank u very much pal......i was searching for this movie for a long it thanx great job
0
dyzney123168 • 18 February 2013, 09:05
torrent downloaded
Show comment
thanx...
0
anonymous • 05 February 2013, 07:30 Show comment
Thanks mate!

User Opinions

Report a bug