The Dynamiter 2011 DVDRip XViD juggs

seeders: 1
leechers: 1
updated:
Added by juggs769.38K in Movies
Torrent verified. Downloaded 195 times.

Summary:

All fourteen-year-old Robbie Hendrick ever wanted was a family. Yet as another Mississippi summer begins, his wayward mother has run off again fearing a breakdown and he's left to burn the days caring for his half brother, Fess. As the deep days and nights pass without her return and with older brother Lucas dangerously in their lives again, Robbie must face the fact that his dream of a family may only be a dream and he might just lose the only family he's ever had: Fess.

Written by Mr.Gooner499.42K
Available in versions: DVDRip
The Dynamiter 2011 DVDRip XViD juggs (Size: 714.93 MB)
  sample.avi 16.79 MB
  The Dynamiter 2011 DVDRip XViD JUGGS.avi 698.14 MB
  Torrent downloaded from extratorrent.com.txt 339 bytes

Description

http://www.shotpix.com/images/22680482285809148553.jpg

http://www.imdb.com/title/tt1738366/

Format : AVI
Format/Info : Audio Video Interleave
File size : 698 MiB
Duration : 1h 14mn
Overall bit rate : 1 318 Kbps
Writing library : VirtualDub build 32842/release

Video
ID : 0
Format : MPEG-4 Visual
Format profile : Advanced Simple@L5
Format settings, BVOP : 2
Format settings, QPel : No
Format settings, GMC : No warppoints
Format settings, Matrix : Default (H.263)
Muxing mode : Packed bitstream
Codec ID : XVID
Codec ID/Hint : XviD
Duration : 1h 14mn
Bit rate : 1 180 Kbps
Width : 640 pixels
Height : 352 pixels
Display aspect ratio : 16:9
Frame rate : 23.976 fps
Color space : YUV
Chroma subsampling : 4:2:0
Bit depth : 8 bits
Scan type : Progressive
Compression mode : Lossy
Bits/(Pixel*Frame) : 0.219
Stream size : 625 MiB (90%)
Writing library : XviD 1.2.0.dev47 (UTC 2006-11-01)

Audio
ID : 1
Format : MPEG Audio
Format version : Version 1
Format profile : Layer 3
Mode : Joint stereo
Mode extension : MS Stereo
Codec ID : 55
Codec ID/Hint : MP3
Duration : 1h 14mn
Bit rate mode : Constant
Bit rate : 128 Kbps
Channel(s) : 2 channels
Sampling rate : 44.1 KHz
Compression mode : Lossy
Stream size : 67.8 MiB (10%)
Alignment : Split accross interleaves
Interleave, duration : 42 ms (1.00 video frame)
Interleave, preload duration : 500 ms
Writing library : LAME3.98.2


http://www.shotpix.com/images/76567234995647568805.png
http://www.shotpix.com/images/43611659501263336936.png
http://www.shotpix.com/images/32994098903733182123.png


[video=http://www.youtube.com/watch?v=vDB__uz7ZOk]

Sharing Widget


Download torrent
714.93 MB
seeders:1
leechers:1
The Dynamiter 2011 DVDRip XViD juggs



To share this torrent use the code below and insert it into comments, status messages, forum posts or your signature.

Torrent: The Dynamiter 2011 DVDRip XViD juggs

Trackers

tracker name
udp://tracker.openbittorrent.com:80/announce
udp://tracker.publicbt.com:80/announce
http://tracker.ex.ua/announce
udp://9.rarbg.com:2710/announce
udp://tracker.coppersurfer.tk:6969/announce
udp://glotorrents.pw:6969/announce
udp://11.rarbg.com:80/announce
udp://www.h33t.com:3310/announce
udp://fr33dom.h33t.com:3310/announce
udp://fr33domtracker.h33t.com:3310/announce
µTorrent compatible trackers list

Locations

name
KickassTorrents
ExtraTorrent
Torrent hash: D6A90719478E6D72225DF60BE436930987DE0FA3

All Comments

audio
9/10
video
9/10
please, leave only comments related to that torrent
Sign In

Do anyone knows where i can find subs ??
good flick, great quality.
audio: 10video: 10
good flick, great quality.
audio: 9video: 9
good A/V quality
Is this the film where the boy is taken into the forest and gang raped by muslim extremists where they shove barb wire in the eye of his cok once they are finished with his anus.
dude i wanna see that!!!
that film is "the kite runner"

audio: 9video: 9
great quality, thanks

User Opinions

GrimPirate14.6K, .hacker17.10.99K, greg858663, eegoos_14194, MADsPICKLESEN3662, GunnyBunnie3583, r13t3083, MileHighNinja2680, sanesation953, harubi170 ... And 8 more
Report a bug Open chat