The Sorcerers Apprentice 2010 DVDRip

seeders: 1
leechers: 0
Added on Nov 12, 2010 by iwannafan2581 in Movies
Downloaded 10 times.

Summary:
Balthazar Blake (Nicolas Cage) is a master sorcerer in modern-day Manhattan trying to defend the city from his arch-nemesis, Maxim Horvath (Alfred Molina). Balthazar can't do it alone, so he recruits Dave Stutler (Jay Baruchel), a seemingly average guy who demonstrates hidden potential, as his reluctant protégé. The sorcerer gives his unwilling accomplice a crash course in the art and science of magic, and together, these unlikely partners work to stop the forces of darkness. It'll take all the courage Dave can muster to survive his training, save the city and get the girl as he becomes The Sorcerer's Apprentice.
Submitted by xDominicx102.51K
report summary
The Sorcerers Apprentice 2010 DVDRip (Size: 1.38 GB)
  Subs
  The Sorcerers Apprentice 2010 DVDRip www.IWANNADOWNLOAD.com.avi 1.37 GB
  sample.avi 10.37 MB
  The Sorcerers Apprentice DVD IWANNADOWNLOAD.com INFO.txt 2.38 KB
  Torrent downloaded from Demonoid.com.txt 47 bytes
  Torrent downloaded from extratorrent.com.txt 40 bytes
  Torrent downloaded from Rarbg.com.txt 33 bytes
  tracked_by_h33t_com.txt 23 bytes

Description

Filename:
The Sorcerers Apprentice DVDRip XviD-DiAMOND

http://www.imdb.com/title/tt0963966

image
image
image
image

Video
ID                               : 0
Format                           : MPEG-4 Visual
Format profile                   : AdvancedSimple@L5
Format settings, BVOP            : Yes
Format settings, QPel            : No
Format settings, GMC             : No warppoints
Format settings, Matrix          : Default (MPEG)
Muxing mode                      : Packed bitstream
Codec ID                         : XVID
Codec ID/Hint                    : XviD
Duration                         : 1h 49mn
Bit rate                         : 1 401 Kbps
Width                            : 640 pixels
Height                           : 272 pixels
Display aspect ratio             : 2.35:1
Frame rate                       : 23.976 fps
Resolution                       : 24 bits
Colorimetry                      : 4:2:0
Scan type                        : Progressive
Bits/(Pixel*Frame)               : 0.336
Stream size                      : 1.07 GiB (78%)
Writing library                  : XviD 1.2.1 (UTC 2008-12-04)

Audio
ID                               : 1
Format                           : AC-3
Format/Info                      : Audio Coding 3
Codec ID                         : 2000
Duration                         : 1h 49mn
Bit rate mode                    : Constant
Bit rate                         : 384 Kbps
Channel(s)                       : 6 channels
Channel positions                : Front: L C R, Surround: L R, LFE
Sampling rate                    : 48.0 KHz
Stream size                      : 299 MiB (21%)
Alignment                        : Split accross interleaves
Interleave, duration             : 42 ms (1.00 video frame)
Interleave, preload duration     : 500 ms

Related Torrents

torrent name size files age seed leech

Sharing Widget


Download torrent
1.38 GB
seeders:1
leechers:0
The Sorcerers Apprentice 2010 DVDRip

Trackers

tracker name Status checked seeders leechers downloads
udp://tracker.publicbt.com:80/announce
outdated 13 Dec 2013 - - -
udp://tracker.openbittorrent.com:80/announce
outdated 13 Dec 2013 - - -
http://11.rarbg.com/announce
private 18 Aug 2013 - - -
http://exodus.1337x.org/announce
outdated 18 Aug 2013 - - -
udp://inferno.demonoid.com:3408/announce
outdated 18 Aug 2013 - - -
http://tracker.openbittorrent.com/announce
outdated 18 Aug 2013 - - -
http://genesis.1337x.org:1337/announce
outdated 18 Aug 2013 - - -
http://tracker.ex.ua/announce
outdated 18 Aug 2013 - - -
http://nemesis.1337x.org/announce
outdated 18 Aug 2013 - - -
http://pow7.com/announce
outdated 18 Aug 2013 - - -
http://10.rarbg.com/announce
private 18 Aug 2013 - - -
http://fr33dom.h33t.com:3310/announce
deleted 18 Aug 2013 - - -
http://tracker.publicbt.com/announce
deleted 18 Aug 2013 - - -
http://inferno.demonoid.com:3408/announce
error 12 Nov 2010 - - -
µTorrent compatible trackers list

Locations

name
KickassTorrents
ThePirateBay
ExtraTorrent
1337x
Limetorrents
Limetorrents
Torrent hash: ae71555aed922de6bcbe8fafa5693b0e5c6b0d99

Top Comments

2
tchanah1559 • 03 Dec 2010, 06:06
torrent downloaded
audio: 10video: 10
Great

All Comments

audio
9/10
video
9/10
please, leave only comments related to that torrent
or sign-in
0
tess1337 • 10 November 2012, 16:52
torrent downloaded
Show comment
audio: 10video: 10
loved this movie canny beat a gd nicolas cage flick audio /10 video /10
0
Omsali2803 • 04 December 2011, 14:02
torrent downloaded
Show comment
audio: 9video: 9
A very good movie, excellent upload, good quality throughout, many thanks,
0
beibeemamah32 • 18 September 2011, 06:07
torrent downloaded
Show comment
audio: 10video: 10
THANKS
0
chillibb3078 • 21 August 2011, 00:34
torrent downloaded
Show comment
audio: 10video: 10
excellent quality, thanks
0
krishaang_motani49 • 15 July 2011, 10:37
torrent downloaded
Show comment
audio: 6video: 6
nice quality not bad...
0
anonymous • 28 June 2011, 10:18 Show comment
audio: 8video: 9
good one
0
evilminion535 • 23 June 2011, 20:41
torrent downloaded
Show comment
audio: 8video: 9
very good
0
Queserao106 • 12 June 2011, 23:53
torrent downloaded
Show comment
audio: 10video: 10
Excellent film will watch out for more from vladlepes3176 - great uploader thanx
0
barrygrund405 • 04 June 2011, 11:43
torrent downloaded
Show comment
audio: 9video: 9
0
dooie43 • 03 June 2011, 18:25
torrent downloaded
Show comment
audio: 9video: 9
Show More

User Opinions

pardeep33366.51K, babY-s0n1a5391, BadboyPitbull2000, pebe1068, peterboy11771, Ravenholdt1598, Runamuk285, rosefaithlove169, sokl131, booneski12 ... And 90 more
DarkLotus13276
Report a bug
', 'pageview');